Developing Android Applications with Java - Pt 2

Category: Technical

Tag: Programming


Posted on 2011-02-27. By anonymous.

Description


Developing Android Applications with Java - Pt 2
Building a Twitter App
Flash Video | English | MP4 | 1280x800 | AVC ~311 kbps | 29.97 fps
AAC 48 kbps | 48.0 KHz | 2 channels | Run time: 9 hours 36 min | 1.31 GB
Genre: eLearning

“Learn to build mobile applications for the exciting new Android platform. When you purchase this product, you'll get access to the videos, slide presentations, and code examples associated with the online course, Developing Android Applications with Java, Part 2. As you learn, you will build a Twitter app from start to finish.”

You can never have too many Twitter clients, as the market has already proven. We'll use a very comprehensive and useful library called twitter4j to do the heavy lifting for us, but there will be plenty of lifting left to do. We'll walk you through setting up sign ins, creating a public timeline, making sure your app is responsive and giving it style to stand out from the flock. Finally, for those times when 140 characters isn't enough, you'll extend your Twitter client to also post photos to the popular Twitpic image service.

Overview: Build an Android Twitter App

1 - Getting Ready to Build a Twitter App 14 minutes
2 - O'Auth Twitter Authentication and Q&A 22 minutes

Week 1: Getting Authenticated with Twitter

1 - Introduction and Review of OAuth 5 minutes
2 - Becoming an OAuth Consumer 19 minutes
3 - Is the User Authenticated? 13 minutes
4 - Loading Twitter's Authentication Page 11 minutes
5 - Saving the Access Tokens 37 minutes

Week 2: Displaying Tweets and the Twitter Public Timeline

1 - Introduction to Loading Tweets and Threading 3 minutes
2 - Loading the Twitter Home Timeline 25 minutes
3 - Loading Newer Tweets 25 minutes
4 - Loading Older Tweets 11 minutes
5 - Loading on a Thread 27 minutes
6 - Showing the Status Detail View 15 minutes

Week 3: Tweeting from Your App

1 - Introduction to Threads and Tweets 4 minutes
2 - Loading Avatars with Threads 13 minutes
3 - Loading Avatars with Async Task 35 minutes
4 - Loading Tweets with Async Tasks 14 minutes
5 - Navigating with a Menu 20 minutes
6 - Posting Tweets 15 minutes
7 - Wrap Up, Homework and Q&A 8 minutes

Week 4: Adding Style to Your App

1 - Introduction to Skinning and Styling your Twitter App 7 minutes
2 - Creating a Theme with Colors and Fonts 30 minutes
3 - Styling Menus and Buttons 33 minutes
4 - Styling the Text Area and the List 24 minutes
5 - Styling for Different Screens 21 minutes

Week 5: Posting Photos from Your App

1 - Introduction to Posting your Photos to Twitter 7 minutes
2 - Getting Ready for Photos 20 minutes
3 - Attaching a Photo from the Library 30 minutes
4 - Attaching a Photo from the Camera 28 minutes
5 - Posting a Photo 17 minutes
6 - Recap of course and Q&A 5 minutes

By: Tony Hillerson
Publisher: O'Reilly Media + creativetechs
Released: April 2010
Run time: 9 hours 36 minutes

More info:
http://oreilly.com/catalog/0636920010289
http://creativelive.com/courses/developing-android-applications-java-part-2-partnership-oreilly

video and audio info
C:\Users\Administrator\Desktop\Developing.Android.Applications.with.Java.Part2\Week 3 - Tweeting from your App\loading-avatars-with-async-task.mp4
General
Complete name : C:\Users\Administrator\Desktop\Developing.Android.Applications.with.Java.Part2\Week 3 - Tweeting from your App\loading-avatars-with-async-task.mp4
Format : MPEG-4
Format profile : Base Media / Version 2
Codec ID : mp42
File size : 93.3 MiB
Duration : 35mn 49s
Overall bit rate : 364 Kbps
Encoded date : UTC 2010-06-10 22:58:12
Tagged date : UTC 2010-06-11 08:35:00
Writing application : Sorenson Squeeze 5.0
Video #2
ID : 2
Format : AVC
Format/Info : Advanced Video Codec
Format profile : [email protected]
Format settings, CABAC : No
Format settings, ReFrames : 2 frames
Codec ID : avc1
Codec ID/Info : Advanced Video Coding
Duration : 35mn 49s
Bit rate mode : Variable
Bit rate : 311 Kbps
Width : 1 280 pixels
Height : 800 pixels
Display aspect ratio : 1.600
Frame rate mode : Variable
Frame rate : 29.970 fps
Minimum frame rate : 22.948 fps
Maximum frame rate : 30.000 fps
Standard : NTSC
Resolution : 24 bits
Colorimetry : 4:2:0
Scan type : Progressive
Bits/(Pixel*Frame) : 0.010
Stream size : 79.8 MiB (85%)
Encoded date : UTC 2010-06-10 22:58:12
Tagged date : UTC 2010-06-10 22:58:12
colour_primaries : BT.709-5, BT.1361, IEC 61966-2-4, SMPTE RP177
transfer_characteristics : BT.709-5, BT.1361
matrix_coefficients : BT.709-5, BT.1361, IEC 61966-2-4 709, SMPTE RP177
Audio #1
ID : 1
Format : AAC
Format/Info : Advanced Audio Codec
Format version : Version 4
Format profile : LC
Format settings, SBR : No
Format settings, PS : Yes
Codec ID : 40
Duration : 35mn 49s
Bit rate mode : Constant
Bit rate : 48.0 Kbps
Channel(s) : 2 channels
Channel positions : Front: L R
Sampling rate : 48.0 KHz
Resolution : 16 bits
Stream size : 12.3 MiB (13%)
Encoded date : UTC 2010-06-10 22:58:12
Tagged date : UTC 2010-06-10 22:58:12


Screenshot






-No mirrors, follow the rules-


Sponsored High Speed Downloads
6468 dl's @ 3938 KB/s
Download Now [Full Version]
8103 dl's @ 3470 KB/s
Download Link 1 - Fast Download
6137 dl's @ 2811 KB/s
Download Mirror - Direct Download



Search More...
Developing Android Applications with Java - Pt 2

Search free ebooks in ebookee.com!


Links
Download this book

No active download links here?
Please check the description for download links if any or do a search to find alternative books.


Related Books


Comments

No comments for "Developing Android Applications with Java - Pt 2".


    Add Your Comments
    1. Download links and password may be in the description section, read description carefully!
    2. Do a search to find mirrors if no download links or dead links.

    required

    required, will not be published

    need login

    required

    Not clear? Click here to refresh.

    Back to Top